Home / 18+ Live Or Die In La Honda 2017 UNCENSORED Movies HDRip x264 5 1

18+ Live Or Die In La Honda 2017 UNCENSORED Movies HDRip x264 5 1

date added 3 months ago   
post views 70 views   
torrent id ID: 476665

Torrent Description: This is a New Way to Download The Movie 18+ Live Or Die In La Honda 2017 UNCENSORED Movies HDRip x264 5 1 Movie Torrent in HD Quality. 18+ Live Or Die In La Honda 2017 UNCENSORED Movies HDRip x264 5 1 DVD Print, 1080p, 720p and Bluray. If you facing any problem Downloading 18+ Live Or Die In La Honda 2017 UNCENSORED Movies HDRip x264 5 1 Movie Torrent. Scroll Down to Get Download Link.

  • Category : Movies
  • Type : HD
  • Language : English
  • Total size : 849.4 MB
  • Uploaded By : nehalpuja-nehalpuja

18+ Live Or Die In La Honda 2017 UNCENSORED Movies HDRip x264 5.1 with Sample ☻rDX☻
===============================================================================================

SCREEN SHOTS:



or

http://postimage.co.nr/2018/3/debit/1.html

File size : 839 MiB
Duration : 1 h 20 min
Overall bit rate mode : Constant
Overall bit rate : 1 459 kb/s
Movie name : 18+ Live Or Die In La Honda 2017 UNCENSORED Movies HDRip x264 5.1 ☻rDX☻

Video
ID : 2
Format : AVC
Format/Info : Advanced Video Codec
Format profile : [email protected]
Format settings, CABAC : Yes
Format settings, ReFrames : 2 frames
Format settings, GOP : M=1, N=12
Codec ID : V_MPEG4/ISO/AVC
Duration : 1 h 20 min
Bit rate mode : Constant
Bit rate : 1 076 kb/s
Width : 720 pixels
Height : 304 pixels
Display aspect ratio : 2.35:1
Frame rate mode : Constant
Frame rate : 23.976 FPS
Color space : YUV
Chroma subsampling : 4:2:0
Bit depth : 8 bits
Scan type : Progressive
Bits/(Pixel*Frame) : 0.205
Stream size : 601 MiB (72%)
Title : ☻rDX☻
Default : Yes
Forced : No

Audio
ID : 1
Format : AC-3
Format/Info : Audio Coding 3
Mode extension : CM (complete main)
Format settings, Endianness : Big
Codec ID : A_AC3
Duration : 1 h 20 min
Bit rate mode : Constant
Bit rate : 384 kb/s
Channel(s) : 6 channels
Channel positions : Front: L C R, Side: L R, LFE
Sampling rate : 48.0 kHz
Frame rate : 31.250 FPS (1536 spf)
Bit depth : 16 bits
Compression mode : Lossy
Stream size : 221 MiB (26%)
Title : ☻rDX☻
Default : Yes
Forced : No



IMDB : http://www.imdb.com/title/tt4768592

DOWNLOAD LINK

18+ Live Or Die In La Honda 2017 UNCENSORED Movies HDRip x264 5 1 18+ Live Or Die In La Honda 2017 UNCENSORED Movies HDRip x264 5 1


Latest Top Searches of peoples:

Download 18+ Live Or Die In La Honda 2017 UNCENSORED Movies HDRip x264 5 1 Full Movie Torrent HD Quality.

Torrent 18+ Live Or Die In La Honda 2017 UNCENSORED Movies HDRip x264 5 1 Download

Download Free 18+ Live Or Die In La Honda 2017 UNCENSORED Movies HDRip x264 5 1 Torrent

Download 18+ Live Or Die In La Honda 2017 UNCENSORED Movies HDRip x264 5 1 Torrent - Kickass Torrents.

18+ Live Or Die In La Honda 2017 UNCENSORED Movies HDRip x264 5 1 Download Torrent - Extratorrent.

18+ Live Or Die In La Honda 2017 UNCENSORED Movies HDRip x264 5 1 Downlaod - torrentz.in

Download 18+ Live Or Die In La Honda 2017 UNCENSORED Movies HDRip x264 5 1 Torrent - bitsnoop..

Torrent 18+ Live Or Die In La Honda 2017 UNCENSORED Movies HDRip x264 5 1 Download - Nyaa.se

18+ Live Or Die In La Honda 2017 UNCENSORED Movies HDRip x264 5 1 HD Full Download Free 2017 - Welltorrent.com.



People also Search for:

  • • Download 18+ Live Or Die In La Honda 2017 UNCENSORED Movies HDRip x264 5 1 Torrent 1080p
  • • Torrent 18+ Live Or Die In La Honda 2017 UNCENSORED Movies HDRip x264 5 1 Download DVDRip
  • • Download 18+ Live Or Die In La Honda 2017 UNCENSORED Movies HDRip x264 5 1 Torrent 720p
  • • 18+ Live Or Die In La Honda 2017 UNCENSORED Movies HDRip x264 5 1 High Resolution Torrent Result
  • • Download 18+ Live Or Die In La Honda 2017 UNCENSORED Movies HDRip x264 5 1 Bluray Torrent
  • • Xvid Torrent 18+ Live Or Die In La Honda 2017 UNCENSORED Movies HDRip x264 5 1 Download
  • • Download 18+ Live Or Die In La Honda 2017 UNCENSORED Movies HDRip x264 5 1 Torrent Full HD
  • • Torrent 18+ Live Or Die In La Honda 2017 UNCENSORED Movies HDRip x264 5 1 HDRip Download
  • • Download 18+ Live Or Die In La Honda 2017 UNCENSORED Movies HDRip x264 5 1 Torrent Multi Language
  • • 18+ Live Or Die In La Honda 2017 UNCENSORED Movies HDRip x264 5 1 Download Multi-Subs Torrent


Tagged with:

Related Movies Torrents