Home / DoomsDay(2008)MPEG-4[DaScubaDude]

DoomsDay(2008)MPEG-4[DaScubaDude]

date added 1 year ago   
post views 293821 views   
torrent id ID: 410288

Torrent Description: This is a New Way to Download The Movie DoomsDay(2008)MPEG-4[DaScubaDude] Movie Torrent in HD Quality. DoomsDay(2008)MPEG-4[DaScubaDude] DVD Print, 1080p, 720p and Bluray. If you facing any problem Downloading DoomsDay(2008)MPEG-4[DaScubaDude] Movie Torrent. Scroll Down to Get Download Link.

  • Category : Movies
  • Type : Mp4
  • Language : English
  • Total size : 1.0 GB
  • Uploaded By : dascubadude-dascubadude


[youtube]-M0fIbx-irk[/youtube]
Doomsday (2008)
R | 1h 45min | Action, Sci-Fi, Thriller | 14 March 2008 (USA)
A futuristic action thriller where a team of people work to prevent a disaster threatening the future of the human race.
Director: Neil Marshall
Writer: Neil Marshall
Stars: Rhona Mitra, Bob Hoskins, Alexander Siddig |
General
Complete name : DoomsDay\Doomsday.mp4
Format : MPEG-4
Format profile : Base Media
Codec ID : isom (isom/iso2/avc1/mp41)
File size : 1.01 GiB
Duration : 1 h 49 min
Overall bit rate : 1 321 kb/s
Movie name : 1CHILDREN_OF_MEN_2DOOMSDAY
Genre : Action
Writing application : Lavf54.6.100

Video
ID : 1
Format : AVC
Format/Info : Advanced Video Codec
Format profile : [email protected]
Format settings, CABAC : No
Format settings, ReFrames : 6 frames
Codec ID : avc1
Codec ID/Info : Advanced Video Coding
Duration : 1 h 49 min
Bit rate : 1 187 kb/s
Width : 720 pixels
Height : 404 pixels
Display aspect ratio : 16:9
Frame rate mode : Constant
Frame rate : 29.970 (30000/1001) FPS
Color space : YUV
Chroma subsampling : 4:2:0
Bit depth : 8 bits
Scan type : Progressive
Bits/(Pixel*Frame) : 0.136
Stream size : 925 MiB (90%)

Audio
ID : 2
Format : AAC
Format/Info : Advanced Audio Codec
Format profile : LC
Codec ID : 40
Duration : 1 h 49 min
Bit rate mode : Constant
Bit rate : 128 kb/s
Channel(s) : 2 channels
Channel positions : Front: L R
Sampling rate : 44.1 kHz
Frame rate : 43.066 FPS (1024 spf)
Compression mode : Lossy
Stream size : 99.8 MiB (10%)
Default : Yes
Alternate group : 1

DOWNLOAD LINK

DoomsDay(2008)MPEG-4[DaScubaDude] DoomsDay(2008)MPEG-4[DaScubaDude]


Latest Top Searches of peoples:

Download DoomsDay(2008)MPEG-4[DaScubaDude] Full Movie Torrent HD Quality.

Torrent DoomsDay(2008)MPEG-4[DaScubaDude] Download

Download Free DoomsDay(2008)MPEG-4[DaScubaDude] Torrent

Download DoomsDay(2008)MPEG-4[DaScubaDude] Torrent - Kickass Torrents.

DoomsDay(2008)MPEG-4[DaScubaDude] Download Torrent - Extratorrent.

DoomsDay(2008)MPEG-4[DaScubaDude] Downlaod - torrentz.in

Download DoomsDay(2008)MPEG-4[DaScubaDude] Torrent - bitsnoop..

Torrent DoomsDay(2008)MPEG-4[DaScubaDude] Download - Nyaa.se

DoomsDay(2008)MPEG-4[DaScubaDude] HD Full Download Free 2017 - Welltorrent.com.



People also Search for:

  • • Download DoomsDay(2008)MPEG-4[DaScubaDude] Torrent 1080p
  • • Torrent DoomsDay(2008)MPEG-4[DaScubaDude] Download DVDRip
  • • Download DoomsDay(2008)MPEG-4[DaScubaDude] Torrent 720p
  • • DoomsDay(2008)MPEG-4[DaScubaDude] High Resolution Torrent Result
  • • Download DoomsDay(2008)MPEG-4[DaScubaDude] Bluray Torrent
  • • Xvid Torrent DoomsDay(2008)MPEG-4[DaScubaDude] Download
  • • Download DoomsDay(2008)MPEG-4[DaScubaDude] Torrent Full HD
  • • Torrent DoomsDay(2008)MPEG-4[DaScubaDude] HDRip Download
  • • Download DoomsDay(2008)MPEG-4[DaScubaDude] Torrent Multi Language
  • • DoomsDay(2008)MPEG-4[DaScubaDude] Download Multi-Subs Torrent


Tagged with:

Related Movies Torrents