Home / Ferdinand (2017) 720p BluRay x264 Dual Audio [Hindi DD5 1 - Engli

Ferdinand (2017) 720p BluRay x264 Dual Audio [Hindi DD5 1 - Engli

date added 3 months ago   
post views 43 views   
torrent id ID: 476659

Torrent Description: This is a New Way to Download The Movie Ferdinand (2017) 720p BluRay x264 Dual Audio [Hindi DD5 1 - Engli Movie Torrent in HD Quality. Ferdinand (2017) 720p BluRay x264 Dual Audio [Hindi DD5 1 - Engli DVD Print, 1080p, 720p and Bluray. If you facing any problem Downloading Ferdinand (2017) 720p BluRay x264 Dual Audio [Hindi DD5 1 - Engli Movie Torrent. Scroll Down to Get Download Link.

  • Category : Movies
  • Type : Dubs/Dual Audio
  • Language : Hindi
  • Total size : 1.8 GB
  • Uploaded By : TheFighter-TheFighter



Ferdinand (2017) 720p BluRay x264 Dual Audio [Hindi DD5.1 - English DD5.1] - Msubs ~ Ranvijay

Thanks To Rohit For Hindi Audio

Format : Matroska
Format version : Version 4 / Version 2
File size : 1.82 GiB
Duration : 1 h 48 min
Overall bit rate : 2 412 kb/s
Movie name : Ferdinand (2017) 720p BluRay x264 Dual Audio [Hindi DD5.1 - English DD5.1] - Msubs ~ Ranvijay

Video
Duration : 1 h 48 min
Bit rate : 1 500 kb/s
Width : 1 280 pixels
Height : 536 pixels
Display aspect ratio : 2.40:1
Frame rate mode : Constant
Frame rate : 23.976 (23976/1000) FPS
Color space : YUV
Chroma subsampling : 4:2:0
Bit depth : 8 bits
Scan type : Progressive
Bits/(Pixel*Frame) : 0.091
Stream size : 1.13 GiB (62%)
Title : ~Ranvijay
Default : Yes
Forced : No

Audio #1
ID : 2
Format : AC-3
Format/Info : Audio Coding 3
Codec ID : A_AC3
Duration : 1 h 48 min
Bit rate mode : Constant
Bit rate : 448 kb/s
Channel(s) : 6 channels
Channel positions : Front: L C R, Side: L R, LFE
Sampling rate : 48.0 kHz
Frame rate : 31.250 FPS (1536 SPF)
Bit depth : 16 bits
Compression mode : Lossy
Stream size : 347 MiB (19%)
Title : ~Ranvijay~
Language : Hindi
Service kind : Complete Main
Default : Yes
Forced : No

Audio #2
ID : 3
Format : AC-3
Format/Info : Audio Coding 3
Codec ID : A_AC3
Duration : 1 h 48 min
Bit rate mode : Constant
Bit rate : 448 kb/s
Channel(s) : 6 channels
Channel positions : Front: L C R, Side: L R, LFE
Sampling rate : 48.0 kHz
Frame rate : 31.250 FPS (1536 SPF)
Bit depth : 16 bits
Compression mode : Lossy
Stream size : 346 MiB (19%)
Title : ~Ranvijay~
Language : English
Service kind : Complete Main
Default : No
Forced : No

Text #1
ID : 4
Format : PGS
Muxing mode : zlib
Codec ID : S_HDMV/PGS
Codec ID/Info : Picture based subtitle format used on BDs/HD-DVDs
Duration : 1 h 39 min
Bit rate : 28.7 kb/s
Count of elements : 2292
Stream size : 20.3 MiB (1%)
Title : ~Ranvijay~
Language : Hindi
Default : Yes
Forced : No

Text #2
ID : 5
Format : PGS
Muxing mode : zlib
Codec ID : S_HDMV/PGS
Codec ID/Info : Picture based subtitle format used on BDs/HD-DVDs
Duration : 1 h 46 min
Bit rate : 21.2 kb/s
Count of elements : 2310
Stream size : 16.2 MiB (1%)
Title : ~Ranvijay~
Language : English
Default : No
Forced : No










DOWNLOAD LINK

Ferdinand (2017) 720p BluRay x264 Dual Audio [Hindi DD5 1 - Engli Ferdinand (2017) 720p BluRay x264 Dual Audio [Hindi DD5 1 - Engli


Latest Top Searches of peoples:

Download Ferdinand (2017) 720p BluRay x264 Dual Audio [Hindi DD5 1 - Engli Full Movie Torrent HD Quality.

Torrent Ferdinand (2017) 720p BluRay x264 Dual Audio [Hindi DD5 1 - Engli Download

Download Free Ferdinand (2017) 720p BluRay x264 Dual Audio [Hindi DD5 1 - Engli Torrent

Download Ferdinand (2017) 720p BluRay x264 Dual Audio [Hindi DD5 1 - Engli Torrent - Kickass Torrents.

Ferdinand (2017) 720p BluRay x264 Dual Audio [Hindi DD5 1 - Engli Download Torrent - Extratorrent.

Ferdinand (2017) 720p BluRay x264 Dual Audio [Hindi DD5 1 - Engli Downlaod - torrentz.in

Download Ferdinand (2017) 720p BluRay x264 Dual Audio [Hindi DD5 1 - Engli Torrent - bitsnoop..

Torrent Ferdinand (2017) 720p BluRay x264 Dual Audio [Hindi DD5 1 - Engli Download - Nyaa.se

Ferdinand (2017) 720p BluRay x264 Dual Audio [Hindi DD5 1 - Engli HD Full Download Free 2017 - Welltorrent.com.



People also Search for:

  • • Download Ferdinand (2017) 720p BluRay x264 Dual Audio [Hindi DD5 1 - Engli Torrent 1080p
  • • Torrent Ferdinand (2017) 720p BluRay x264 Dual Audio [Hindi DD5 1 - Engli Download DVDRip
  • • Download Ferdinand (2017) 720p BluRay x264 Dual Audio [Hindi DD5 1 - Engli Torrent 720p
  • • Ferdinand (2017) 720p BluRay x264 Dual Audio [Hindi DD5 1 - Engli High Resolution Torrent Result
  • • Download Ferdinand (2017) 720p BluRay x264 Dual Audio [Hindi DD5 1 - Engli Bluray Torrent
  • • Xvid Torrent Ferdinand (2017) 720p BluRay x264 Dual Audio [Hindi DD5 1 - Engli Download
  • • Download Ferdinand (2017) 720p BluRay x264 Dual Audio [Hindi DD5 1 - Engli Torrent Full HD
  • • Torrent Ferdinand (2017) 720p BluRay x264 Dual Audio [Hindi DD5 1 - Engli HDRip Download
  • • Download Ferdinand (2017) 720p BluRay x264 Dual Audio [Hindi DD5 1 - Engli Torrent Multi Language
  • • Ferdinand (2017) 720p BluRay x264 Dual Audio [Hindi DD5 1 - Engli Download Multi-Subs Torrent


Tagged with:

Related Movies Torrents