Home / Justice League 2017 IMAX 1080p Bluray Dual Audio Hindi DD 5 1 Eng

Justice League 2017 IMAX 1080p Bluray Dual Audio Hindi DD 5 1 Eng

date added 3 months ago   
post views 51 views   
torrent id ID: 476684

Torrent Description: This is a New Way to Download The Movie Justice League 2017 IMAX 1080p Bluray Dual Audio Hindi DD 5 1 Eng Movie Torrent in HD Quality. Justice League 2017 IMAX 1080p Bluray Dual Audio Hindi DD 5 1 Eng DVD Print, 1080p, 720p and Bluray. If you facing any problem Downloading Justice League 2017 IMAX 1080p Bluray Dual Audio Hindi DD 5 1 Eng Movie Torrent. Scroll Down to Get Download Link.

  • Category : Movies
  • Type : Dubs/Dual Audio
  • Language : Hindi
  • Total size : 5.0 GB
  • Uploaded By : sujit2324-sujit2324




Movie Encode From Full BD/BDREMUX

Justice League 2017 1080p Bluray Dual Audio Hindi DD 5.1 English 6CH MAVI

Join Us Now FaceBook

Org Bluray Audio Source (Rohit Thanks For Audio)

Video
ID                                       : 1
Format                                   : AVC
Format/Info                              : Advanced Video Codec
Format profile                           : [email protected]
Format settings                          : CABAC / 4 Ref Frames
Format settings, CABAC                   : Yes
Format settings, RefFrames               : 4 frames
Codec ID                                 : V_MPEG4/ISO/AVC
Duration                                 : 2 h 0 min
Bit rate                                 : 5 000 kb/s
Width                                    : 1 920 pixels
Height                                   : 1 080 pixels
Display aspect ratio                     : 16:9
Frame rate mode                          : Constant
Frame rate                               : 23.976 (24000/1001) FPS
Color space                              : YUV
Chroma subsampling                       : 4:2:0
Bit depth                                : 8 bits
Scan type                                : Progressive
Bits/(Pixel*Frame)                       : 0.101
Stream size                              : 4.19 GiB (84%)
Writing library                          : x264 core 142 r2431 ac76440
Encoding settings                        : cabac=1 / ref=4 / deblock=1:-3:-3 / analyse=0x3:0x133 / me=umh / subme=11 / psy=1 / psy_rd=1.00:0.15 / mixed_ref=1 / me_range=24 / chroma_me=1 / trellis=2 / 8x8dct=1 / cqm=0 / deadzone=21,11 / fast_pskip=1 / chroma_qp_offset=-5 / threads=24 / lookahead_threads=4 / sliced_threads=0 / nr=0 / decimate=1 / interlaced=0 / bluray_compat=0 / constrained_intra=0 / bframes=8 / b_pyramid=0 / b_adapt=2 / b_bias=0 / direct=3 / weightb=1 / open_gop=0 / weightp=2 / keyint=230 / keyint_min=22 / scenecut=40 / intra_refresh=0 / rc_lookahead=60 / rc=2pass / mbtree=1 / bitrate=5000 / ratetol=1.0 / qcomp=0.60 / qpmin=10 / qpmax=51 / qpstep=4 / cplxblur=20.0 / qblur=0.5 / vbv_maxrate=62500 / vbv_bufsize=78125 / nal_hrd=none / filler=0 / ip_ratio=1.40 / aq=1:1.00
Language                                 : English
Default                                  : Yes
Forced                                   : No
Color range                              : Limited
Color primaries                          : Generic film
Transfer characteristics                 : BT.709
Matrix coefficients                      : BT.709

Audio #1
ID                                       : 2
Format                                   : AC-3
Format/Info                              : Audio Coding 3
Codec ID                                 : A_AC3
Duration                                 : 2 h 0 min
Bit rate mode                            : Constant
Bit rate                                 : 448 kb/s
Channel(s)                               : 6 channels
Channel positions                        : Front: L C R, Side: L R, LFE
Sampling rate                            : 48.0 kHz
Frame rate                               : 31.250 FPS (1536 SPF)
Bit depth                                : 16 bits
Compression mode                         : Lossy
Stream size                              : 385 MiB (8%)
Language                                 : Hindi
Service kind                             : Complete Main
Default                                  : No
Forced                                   : No

Audio #2
ID                                       : 3
Format                                   : AC-3
Format/Info                              : Audio Coding 3
Codec ID                                 : A_AC3
Duration                                 : 2 h 0 min
Bit rate mode                            : Constant
Bit rate                                 : 448 kb/s
Channel(s)                               : 6 channels
Channel positions                        : Front: L C R, Side: L R, LFE
Sampling rate                            : 48.0 kHz
Frame rate                               : 31.250 FPS (1536 SPF)
Bit depth                                : 16 bits
Compression mode                         : Lossy
Stream size                              : 385 MiB (8%)
Language                                 : English
Service kind                             : Complete Main
Default                                  : Yes
Forced                                   : No

Text #1
ID                                       : 4
Format                                   : PGS
Codec ID                                 : S_HDMV/PGS
Codec ID/Info                            : Picture based subtitle format used on BDs/HD-DVDs
Duration                                 : 1 h 59 min
Bit rate                                 : 30.8 kb/s
Count of elements                        : 3014
Stream size                              : 26.2 MiB (1%)
Title                                    : SDH
Language                                 : English
Default                                  : Yes
Forced                                   : No

Text #2
ID                                       : 5
Format                                   : PGS
Codec ID                                 : S_HDMV/PGS
Codec ID/Info                            : Picture based subtitle format used on BDs/HD-DVDs
Duration                                 : 1 h 57 min
Bit rate                                 : 719 b/s
Count of elements                        : 62
Stream size                              : 621 KiB (0%)
Title                                    : Forced
Language                                 : Hindi
Default                                  : No
Forced                                   : No

Menu
00:00:00.000                             : en:00:00:00.000
00:10:56.155                             : en:00:10:56.155
00:19:16.489                             : en:00:19:16.489
00:30:41.673                             : en:00:30:41.673
00:40:19.667                             : en:00:40:19.667
00:49:56.535                             : en:00:49:56.535
01:01:26.892                             : en:01:01:26.892
01:09:41.552                             : en:01:09:41.552
01:19:18.587                             : en:01:19:18.587
01:30:34.512                             : en:01:30:34.512
01:40:33.569                             : en:01:40:33.569
01:48:43.058                             : en:01:48:43.058







DOWNLOAD LINK

Justice League 2017 IMAX 1080p Bluray Dual Audio Hindi DD 5 1 Eng Justice League 2017 IMAX 1080p Bluray Dual Audio Hindi DD 5 1 Eng


Latest Top Searches of peoples:

Download Justice League 2017 IMAX 1080p Bluray Dual Audio Hindi DD 5 1 Eng Full Movie Torrent HD Quality.

Torrent Justice League 2017 IMAX 1080p Bluray Dual Audio Hindi DD 5 1 Eng Download

Download Free Justice League 2017 IMAX 1080p Bluray Dual Audio Hindi DD 5 1 Eng Torrent

Download Justice League 2017 IMAX 1080p Bluray Dual Audio Hindi DD 5 1 Eng Torrent - Kickass Torrents.

Justice League 2017 IMAX 1080p Bluray Dual Audio Hindi DD 5 1 Eng Download Torrent - Extratorrent.

Justice League 2017 IMAX 1080p Bluray Dual Audio Hindi DD 5 1 Eng Downlaod - torrentz.in

Download Justice League 2017 IMAX 1080p Bluray Dual Audio Hindi DD 5 1 Eng Torrent - bitsnoop..

Torrent Justice League 2017 IMAX 1080p Bluray Dual Audio Hindi DD 5 1 Eng Download - Nyaa.se

Justice League 2017 IMAX 1080p Bluray Dual Audio Hindi DD 5 1 Eng HD Full Download Free 2017 - Welltorrent.com.



People also Search for:

  • • Download Justice League 2017 IMAX 1080p Bluray Dual Audio Hindi DD 5 1 Eng Torrent 1080p
  • • Torrent Justice League 2017 IMAX 1080p Bluray Dual Audio Hindi DD 5 1 Eng Download DVDRip
  • • Download Justice League 2017 IMAX 1080p Bluray Dual Audio Hindi DD 5 1 Eng Torrent 720p
  • • Justice League 2017 IMAX 1080p Bluray Dual Audio Hindi DD 5 1 Eng High Resolution Torrent Result
  • • Download Justice League 2017 IMAX 1080p Bluray Dual Audio Hindi DD 5 1 Eng Bluray Torrent
  • • Xvid Torrent Justice League 2017 IMAX 1080p Bluray Dual Audio Hindi DD 5 1 Eng Download
  • • Download Justice League 2017 IMAX 1080p Bluray Dual Audio Hindi DD 5 1 Eng Torrent Full HD
  • • Torrent Justice League 2017 IMAX 1080p Bluray Dual Audio Hindi DD 5 1 Eng HDRip Download
  • • Download Justice League 2017 IMAX 1080p Bluray Dual Audio Hindi DD 5 1 Eng Torrent Multi Language
  • • Justice League 2017 IMAX 1080p Bluray Dual Audio Hindi DD 5 1 Eng Download Multi-Subs Torrent


Tagged with:

Related Movies Torrents