Home / Monsters At Large 2018 HDRip AC3 5 1 x264 [MW]

Monsters At Large 2018 HDRip AC3 5 1 x264 [MW]

date added 3 months ago   
post views 63 views   
torrent id ID: 476672

Torrent Description: This is a New Way to Download The Movie Monsters At Large 2018 HDRip AC3 5 1 x264 [MW] Movie Torrent in HD Quality. Monsters At Large 2018 HDRip AC3 5 1 x264 [MW] DVD Print, 1080p, 720p and Bluray. If you facing any problem Downloading Monsters At Large 2018 HDRip AC3 5 1 x264 [MW] Movie Torrent. Scroll Down to Get Download Link.

  • Category : Movies
  • Type : h.264/x264
  • Language : English
  • Total size : 797.6 MB
  • Uploaded By : moviezworldz-moviezworldz






General
Format : Matroska
Format version : Version 4 / Version 2
File size : 798 MiB
Duration : 1 h 31 min
Overall bit rate : 1 219 kb/s

Video
ID : 1
Format : AVC
Format/Info : Advanced Video Codec
Format profile : [email protected]
Format settings : CABAC / 4 Ref Frames
Format settings, CABAC : Yes
Format settings, RefFrames : 4 frames
Codec ID : V_MPEG4/ISO/AVC
Duration : 1 h 31 min
Bit rate : 1 000 kb/s
Width : 720 pixels
Height : 404 pixels
Display aspect ratio : 16:9
Frame rate mode : Constant
Frame rate : 23.976 (24000/1001) FPS
Color space : YUV
Chroma subsampling : 4:2:0
Bit depth : 8 bits
Scan type : Progressive
Bits/(Pixel*Frame) : 0.143
Stream size : 650 MiB (81%)
Writing library : x264 core 148 r2708 86b7198
Default : Yes
Forced : No

Audio
ID : 2
Format : AC-3
Format/Info : Audio Coding 3
Codec ID : A_AC3
Duration : 1 h 31 min
Bit rate mode : Constant
Bit rate : 224 kb/s
Channel(s) : 6 channels
Channel positions : Front: L C R, Side: L R, LFE
Sampling rate : 48.0 kHz
Frame rate : 31.250 FPS (1536 SPF)
Bit depth : 16 bits
Compression mode : Lossy
Stream size : 147 MiB (18%)
Language : English
Service kind : Complete Main
Default : Yes
Forced : No












DOWNLOAD LINK

Monsters At Large 2018 HDRip AC3 5 1 x264 [MW] Monsters At Large 2018 HDRip AC3 5 1 x264 [MW]


Latest Top Searches of peoples:

Download Monsters At Large 2018 HDRip AC3 5 1 x264 [MW] Full Movie Torrent HD Quality.

Torrent Monsters At Large 2018 HDRip AC3 5 1 x264 [MW] Download

Download Free Monsters At Large 2018 HDRip AC3 5 1 x264 [MW] Torrent

Download Monsters At Large 2018 HDRip AC3 5 1 x264 [MW] Torrent - Kickass Torrents.

Monsters At Large 2018 HDRip AC3 5 1 x264 [MW] Download Torrent - Extratorrent.

Monsters At Large 2018 HDRip AC3 5 1 x264 [MW] Downlaod - torrentz.in

Download Monsters At Large 2018 HDRip AC3 5 1 x264 [MW] Torrent - bitsnoop..

Torrent Monsters At Large 2018 HDRip AC3 5 1 x264 [MW] Download - Nyaa.se

Monsters At Large 2018 HDRip AC3 5 1 x264 [MW] HD Full Download Free 2017 - Welltorrent.com.



People also Search for:

  • • Download Monsters At Large 2018 HDRip AC3 5 1 x264 [MW] Torrent 1080p
  • • Torrent Monsters At Large 2018 HDRip AC3 5 1 x264 [MW] Download DVDRip
  • • Download Monsters At Large 2018 HDRip AC3 5 1 x264 [MW] Torrent 720p
  • • Monsters At Large 2018 HDRip AC3 5 1 x264 [MW] High Resolution Torrent Result
  • • Download Monsters At Large 2018 HDRip AC3 5 1 x264 [MW] Bluray Torrent
  • • Xvid Torrent Monsters At Large 2018 HDRip AC3 5 1 x264 [MW] Download
  • • Download Monsters At Large 2018 HDRip AC3 5 1 x264 [MW] Torrent Full HD
  • • Torrent Monsters At Large 2018 HDRip AC3 5 1 x264 [MW] HDRip Download
  • • Download Monsters At Large 2018 HDRip AC3 5 1 x264 [MW] Torrent Multi Language
  • • Monsters At Large 2018 HDRip AC3 5 1 x264 [MW] Download Multi-Subs Torrent


Tagged with:

Related Movies Torrents