Home / Night Creatures(1962)MPEG-4[DaScubaDude]

Night Creatures(1962)MPEG-4[DaScubaDude]

date added 2 years ago   
post views 555 views   
torrent id ID: 520

Torrent Description: This is a New Way to Download The Movie Night Creatures(1962)MPEG-4[DaScubaDude] Movie Torrent in HD Quality. Night Creatures(1962)MPEG-4[DaScubaDude] DVD Print, 1080p, 720p and Bluray. If you facing any problem Downloading Night Creatures(1962)MPEG-4[DaScubaDude] Movie Torrent. Scroll Down to Get Download Link.

  • Category » Movies
  • Type » DVD
  • Language » English
  • Total size » 786.98 MB
  • Uploaded By » dascubadude-dascubadude
[img]http://ia.media-imdb.com/images/M/MV5BZjkxZGY3NWE[email protected]@._V1_UX182_CR0,0,182,268_AL_.jpg[/img
Night Creatures (1962)
Captain Clegg (original title)
Unrated | 1h 22min | Adventure, Horror | 13 June 1962 (USA)
In 18th-century England, the Royal Crown sends Royal Navy Captain Collier and his crew to investigate reports of illegal smuggling and bootlegging in a coastal town where locals believe in Marsh Phantoms.
Director: Peter Graham Scott
Writers: Anthony Hinds (screenplay) (as John Elder), Barbara S. Harper (additional dialogue)
Stars: Peter Cushing, Yvonne Romain, Patrick Allen

General
Complete name : Night Creatures\HAMMER_HORROR_Title1.mp4
Format : MPEG-4
Format profile : Base Media
Codec ID : isom
File size : 787 MiB
Duration : 1h 22mn
Overall bit rate : 1 339 Kbps
Movie name : HAMMER_HORROR
Genre : Horror
Writing application : Lavf54.6.100

Video
ID : 1
Format : AVC
Format/Info : Advanced Video Codec
Format profile : [email protected]
Format settings, CABAC : No
Format settings, ReFrames : 6 frames
Format settings, GOP : M=1, N=60
Codec ID : avc1
Codec ID/Info : Advanced Video Coding
Duration : 1h 22mn
Bit rate : 1 203 Kbps
Width : 720 pixels
Height : 404 pixels
Display aspect ratio : 16:9
Frame rate mode : Constant
Frame rate : 29.970 fps
Color space : YUV
Chroma subsampling : 4:2:0
Bit depth : 8 bits
Scan type : Progressive
Bits/(Pixel*Frame) : 0.138
Stream size : 707 MiB (90%)

Audio
ID : 2
Format : AAC
Format/Info : Advanced Audio Codec
Format profile : LC
Codec ID : 40
Duration : 1h 22mn
Bit rate mode : Constant
Bit rate : 129 Kbps
Channel(s) : 2 channels
Channel positions : Front: L R
Sampling rate : 44.1 KHz
Compression mode : Lossy
Stream size : 76.0 MiB (10%)


DOWNLOAD LINK

Night Creatures(1962)MPEG-4[DaScubaDude] Night Creatures(1962)MPEG-4[DaScubaDude]


Latest Top Searches of peoples:

Download Night Creatures(1962)MPEG-4[DaScubaDude] Full Movie Torrent HD Quality.

Torrent Night Creatures(1962)MPEG-4[DaScubaDude] Download

Download Free Night Creatures(1962)MPEG-4[DaScubaDude] Torrent

Download Night Creatures(1962)MPEG-4[DaScubaDude] Torrent - Kickass Torrents.

Night Creatures(1962)MPEG-4[DaScubaDude] Download Torrent - Extratorrent.

Night Creatures(1962)MPEG-4[DaScubaDude] Downlaod - torrentz.in

Download Night Creatures(1962)MPEG-4[DaScubaDude] Torrent - bitsnoop..

Torrent Night Creatures(1962)MPEG-4[DaScubaDude] Download - Nyaa.se

Night Creatures(1962)MPEG-4[DaScubaDude] HD Full Download Free 2017 - Welltorrent.com.



People also Search for:

  • • Download Night Creatures(1962)MPEG-4[DaScubaDude] Torrent 1080p
  • • Torrent Night Creatures(1962)MPEG-4[DaScubaDude] Download DVDRip
  • • Download Night Creatures(1962)MPEG-4[DaScubaDude] Torrent 720p
  • • Night Creatures(1962)MPEG-4[DaScubaDude] High Resolution Torrent Result
  • • Download Night Creatures(1962)MPEG-4[DaScubaDude] Bluray Torrent
  • • Xvid Torrent Night Creatures(1962)MPEG-4[DaScubaDude] Download
  • • Download Night Creatures(1962)MPEG-4[DaScubaDude] Torrent Full HD
  • • Torrent Night Creatures(1962)MPEG-4[DaScubaDude] HDRip Download
  • • Download Night Creatures(1962)MPEG-4[DaScubaDude] Torrent Multi Language
  • • Night Creatures(1962)MPEG-4[DaScubaDude] Download Multi-Subs Torrent


Tagged with:

Related Movies Torrents