Home / Tim Timmerman Hope of America 2017 Movies HDRip x264 5 1 with Sam

Tim Timmerman Hope of America 2017 Movies HDRip x264 5 1 with Sam

date added 3 months ago   
post views 72 views   
torrent id ID: 476673

Torrent Description: This is a New Way to Download The Movie Tim Timmerman Hope of America 2017 Movies HDRip x264 5 1 with Sam Movie Torrent in HD Quality. Tim Timmerman Hope of America 2017 Movies HDRip x264 5 1 with Sam DVD Print, 1080p, 720p and Bluray. If you facing any problem Downloading Tim Timmerman Hope of America 2017 Movies HDRip x264 5 1 with Sam Movie Torrent. Scroll Down to Get Download Link.

  • Category : Movies
  • Type : HD
  • Language : English
  • Total size : 847.3 MB
  • Uploaded By : nehalpuja-nehalpuja

Tim Timmerman Hope of America 2017 Movies HDRip x264 5.1 with Sample ☻rDX☻
===============================================================================================

SCREEN SHOTS:



or

http://postimage.co.nr/2018/3/datacable/1.html

File size : 839 MiB
Duration : 1 h 38 min
Overall bit rate mode : Constant
Overall bit rate : 1 191 kb/s
Movie name : Tim Timmerman Hope of America 2017 Movies HDRip x264 5.1 ☻rDX☻

Video
ID : 2
Format : AVC
Format/Info : Advanced Video Codec
Format profile : [email protected]
Format settings, CABAC : Yes
Format settings, ReFrames : 2 frames
Format settings, GOP : M=1, N=12
Codec ID : V_MPEG4/ISO/AVC
Duration : 1 h 38 min
Bit rate mode : Constant
Bit rate : 808 kb/s
Width : 720 pixels
Height : 384 pixels
Display aspect ratio : 1.85:1
Frame rate mode : Constant
Frame rate : 23.976 FPS
Color space : YUV
Chroma subsampling : 4:2:0
Bit depth : 8 bits
Scan type : Progressive
Bits/(Pixel*Frame) : 0.122
Stream size : 552 MiB (66%)
Title : ☻rDX☻
Default : Yes
Forced : No

Audio
ID : 1
Format : AC-3
Format/Info : Audio Coding 3
Mode extension : CM (complete main)
Format settings, Endianness : Big
Codec ID : A_AC3
Duration : 1 h 38 min
Bit rate mode : Constant
Bit rate : 384 kb/s
Channel(s) : 6 channels
Channel positions : Front: L C R, Side: L R, LFE
Sampling rate : 48.0 kHz
Frame rate : 31.250 FPS (1536 spf)
Bit depth : 16 bits
Compression mode : Lossy
Stream size : 271 MiB (32%)
Title : ☻rDX☻
Default : Yes
Forced : No



IMDB : http://www.imdb.com/title/tt4514646

DOWNLOAD LINK

Tim Timmerman Hope of America 2017 Movies HDRip x264 5 1 with Sam Tim Timmerman Hope of America 2017 Movies HDRip x264 5 1 with Sam


Latest Top Searches of peoples:

Download Tim Timmerman Hope of America 2017 Movies HDRip x264 5 1 with Sam Full Movie Torrent HD Quality.

Torrent Tim Timmerman Hope of America 2017 Movies HDRip x264 5 1 with Sam Download

Download Free Tim Timmerman Hope of America 2017 Movies HDRip x264 5 1 with Sam Torrent

Download Tim Timmerman Hope of America 2017 Movies HDRip x264 5 1 with Sam Torrent - Kickass Torrents.

Tim Timmerman Hope of America 2017 Movies HDRip x264 5 1 with Sam Download Torrent - Extratorrent.

Tim Timmerman Hope of America 2017 Movies HDRip x264 5 1 with Sam Downlaod - torrentz.in

Download Tim Timmerman Hope of America 2017 Movies HDRip x264 5 1 with Sam Torrent - bitsnoop..

Torrent Tim Timmerman Hope of America 2017 Movies HDRip x264 5 1 with Sam Download - Nyaa.se

Tim Timmerman Hope of America 2017 Movies HDRip x264 5 1 with Sam HD Full Download Free 2017 - Welltorrent.com.



People also Search for:

  • • Download Tim Timmerman Hope of America 2017 Movies HDRip x264 5 1 with Sam Torrent 1080p
  • • Torrent Tim Timmerman Hope of America 2017 Movies HDRip x264 5 1 with Sam Download DVDRip
  • • Download Tim Timmerman Hope of America 2017 Movies HDRip x264 5 1 with Sam Torrent 720p
  • • Tim Timmerman Hope of America 2017 Movies HDRip x264 5 1 with Sam High Resolution Torrent Result
  • • Download Tim Timmerman Hope of America 2017 Movies HDRip x264 5 1 with Sam Bluray Torrent
  • • Xvid Torrent Tim Timmerman Hope of America 2017 Movies HDRip x264 5 1 with Sam Download
  • • Download Tim Timmerman Hope of America 2017 Movies HDRip x264 5 1 with Sam Torrent Full HD
  • • Torrent Tim Timmerman Hope of America 2017 Movies HDRip x264 5 1 with Sam HDRip Download
  • • Download Tim Timmerman Hope of America 2017 Movies HDRip x264 5 1 with Sam Torrent Multi Language
  • • Tim Timmerman Hope of America 2017 Movies HDRip x264 5 1 with Sam Download Multi-Subs Torrent


Tagged with:

Related Movies Torrents